MD5
7db86934fedd648efa196927bfbab816
SHA1
550216f550d526c5235042fece573e3a295550db
  • Анонимно
  • Скачан 586 раз
  • Metalink
  • QR

Общее

Количество файлов: 1

Описание

Страницы:  1

Автор

Сообщение

jensen123321

Top Seed

Стаж: 6 лет 9 месяцев

Сообщений: 640

Откуда: Сергиев Посад

21-Апр-16 02:30 (9 месяцев назад, ред. 06-Май-16 00:33)

[Цитировать] 

-Страна: Япония
Год выпуска: 2011 г.
Жанр: триллер, фантастика, драма
Тип: TV
Продолжительность: (24 эп. + спэшл) по 24 мин.
Режиссер: Сато Такуя
Студия: -Перевод:
Русские субтитры от Nesitac & Stan WarHammer (полные) [24+1] | Внешние.
Редактор/Тайм-код/Оформление: Stan WarHammer, Переводчик: Nesitach
Русские субтитры от Hyakka Ryoran Fansubs (полные) [24+1] | Внешние.
Переводчик/Перевод песен: Iby, Редактор: Enma, Редактор/Перевод песен/Оформление: SeeR-Описание:Акихабара – интереснейшее место, где обитают самые разные люди – от слегка сдвинутых по фазе до больных на всю голову. Именно такая компания собралась в «Лаборатории проблем времени», что над лавкой старых телевизоров. Возглавляет ее «настоящий буйный», 18-летний Ринтаро Окабэ, сумасшедший ученый и борец с мировым заговором. В серьезном деле нельзя без хакера – вот и он, Итару Хасида, конечно же, толстяк и истинный отаку. Добрая фея лаборатории – Маюри Сиина, подруга детства Ринтаро, официантка мейд-кафе и фанатка косплея, а научную мощь бригады резко повысила юный гений Курису Макисэ, стосковавшаяся по интеллектуальным приключениям и простому человеческому теплу.
Конечно же, ребятам удалось построить машину времени из микроволновки и барахла с ближайшей распродажи. Великие открытия делают любители – профессионалы строят «Титаники». Вот только потом началось такое, что «парадокс дедушки» нервно удалился курить в сторонку, а главный герой трижды проклял тот день, когда сдуру открыл «врата Штейна». Он был готов рисковать своей жизнью, но не чужими… Впрочем, сделанного, как известно, не воротишь. Или… все же можно?© Hollow, World Art-Доп. информация:Адаптация визуальной новеллы, совместно созданной компаниями Nitroplus и 5pb. Предварительный показ первого эпизода - 06.03.2011.
Название сериала намекает, разумеется, на теорию относительности Эйнштейна, в рамках которой путешествия во времени возможны, прежде всего, в будущее.
Псевдоним Кёма Хооин, которым пользуется герой сериала, дословно значит «Феникс жестокой реальности».
-Качество: BDRip (DS of mawen1250)
Тип релиза: Без хардсаба
Формат видео: MKV
Видео: x264 (10bit), 852x480, 1204 Kbps, 23.976 fps
Аудио JAP: Vorbis, 48000Hz, 192 Kbps, 2ch (В контейнере)
Аудио RUS (1-2): AAC, 48000Hz, 192 Kbps, 2ch (Внешними файлами)

Список озвучек в раздаче

Двухголосная (жен./муж.) от Eladiel & Jam (Animedia)
Двухголосная (жен./муж.) от Emeri & loster01 (TF-AniGroup)

Подробные тех. данные

Общее
Уникальный идентификатор : 217805193816347910679612218712378074030 (0xA3DBC125B15D948CB59856642E2063AE)
Полное имя : D:\ANIME\Steins;Gate [BDrip 852x480 x264 Vorbis]\Steins;Gate 01 [BDrip 852x480 x264 Vorbis].mkv
Формат : Matroska
Версия формата : Version 4 / Version 2
Размер файла : 236 Мбайт
Продолжительность : 23 м.
Режим общего битрейта : Переменный
Общий поток : 1375 Кбит/сек
Дата кодирования : UTC 2016-04-20 22:27:11
Программа кодирования : mkvmerge v7.1.0 ('Good Love') 64bit built on Jul 27 2014 13:06:55
Библиотека кодирования : libebml v1.3.0 + libmatroska v1.4.1
Видео
Идентификатор : 1
Формат : AVC
Формат/Информация : Advanced Video Codec
Профиль формата : High 10@L4
Параметр CABAC формата : Да
Параметр ReFrames формата : 16 кадров
Идентификатор кодека : V_MPEG4/ISO/AVC
Продолжительность : 23 м.
Битрейт : 1203 Кбит/сек
Ширина : 852 пикселя
Высота : 480 пикселей
Соотношение сторон : 16:9
Режим частоты кадров : Постоянный
Частота кадров : 23,976 (24000/1001) кадра/сек
Цветовое пространство : YUV
Субдискретизация насыщенности : 4:2:0
Битовая глубина : 10 бит
Тип развёртки : Прогрессивная
Бит/(ПикселиКадры) : 0.123
Размер потока : 206 Мбайт (87%)
Библиотека кодирования : x264 core 148 r2579 73ae2d1
Настройки программы : cabac=1 / ref=16 / deblock=1:0:0 / analyse=0x3:0x113 / me=umh / subme=9 / psy=1 / psy_rd=0.40:0.00 / mixed_ref=1 / me_range=32 / chroma_me=1 / trellis=2 / 8x8dct=1 / cqm=0 / deadzone=21,11 / fast_pskip=1 / chroma_qp_offset=-2 / threads=4 / lookahead_threads=1 / sliced_threads=0 / nr=0 / decimate=1 / interlaced=0 / bluray_compat=0 / constrained_intra=0 / bframes=16 / b_pyramid=2 / b_adapt=2 / b_bias=0 / direct=1 / weightb=1 / open_gop=0 / weightp=1 / keyint=240 / keyint_min=23 / scenecut=40 / intra_refresh=0 / rc=crf / mbtree=0 / crf=15.0 / qcomp=0.70 / qpmin=10 / qpmax=51 / qpstep=4 / ip_ratio=1.40 / pb_ratio=1.30 / aq=1:1.00
Default : Да
Forced : Нет
Цветовой диапазон : Limited
Основные цвета : BT.709
Характеристики трансфера : BT.709
Коэффициенты матрицы : BT.709
Аудио
Идентификатор : 2
Формат : Vorbis
Параметр Floor формата : 1
Идентификатор кодека : A_VORBIS
Продолжительность : 23 м.
Вид битрейта : Переменный
Битрейт : 192 Кбит/сек
Каналы : 2 канала
Частота : 48,0 КГц
Частота кадров : 86,402 кадров/сек (556 spf)
Detected bit depth : 24 бит
Метод сжатия : С потерями
Размер потока : 29,1 Мбайт (12%)
Библиотека кодирования : aoTuV 20110424 (UTC 2011-04-24)
Default : Да
Forced : Нет

Список эпизодов

01. Prologue to the Beginning and End
02. Time Travel Paranoia
03. Parallel Process Paranoia
04. Interpreter Rendezvous...
05. Starmine Rendezvous
06. Butterfly Effect`s Divergence
07. Divergence Singularity
08. Homeostasis of Dreams
09. Homeostasis of Illusions
10. Homeostasis of Complements
11. Dogma in Event Horizon
12. Dogma in Ergosphere
13. Metaphysics Necrosis
14. Physically Necrosis
15. Missing Link Necrosis
16. Sacrificial Necrosis
17. Made in Complex
18. Fractal Androgynous
19. Endless Apoptosis
20. Finalize Apoptosis
21. Melt of the Principle of Causality
22. Being Meltdown
23. Steins Gate Boundary
24. Prologue to the End and the Beginning
25 (SP). Egoistic Poriomania

Скриншоты















Отличия

Информация о релизе

В случае появления нового материала или же лучшего по качеству материала релизер оставляет за собой право обновить раздачу. В этом случае вам необходимо ознакомиться с изменениями (добавлениями) и перекачать торрент.
Данный релиз предназначен для просмотра с внешними звуковыми дорожками и субтитрами. Как это сделать в разных плеерах подробно описано здесь.
Для просмотра с внешней звуковой дорожкой или субтитрами нужно:
перекинуть файлы .mka из папки "RUS Sound [<автор(ы) озвучки>]" в одну папку с видео и переключить звуковую дорожку в плеере при просмотре, для субтитров - перекинуть фаил субтитров .ass из папки "RUS sub [<автор(ы) субтитров>]" в одну папку с видео и подключить их в плеере при просмотре.
Download
Сайт не распространяет и не хранит электронные версии произведений, а лишь предоставляет доступ к создаваемому пользователями каталогу ссылок на торрент-файлы, которые содержат только списки хеш-сумм
[Профиль]  [ЛС] 

kipyatochnig

Стаж: 5 лет 7 месяцев

Сообщений: 33


21-Апр-16 22:18 (спустя 19 часов, ред. 21-Апр-16 22:18)

[Цитировать] 

Типа, врата были Штейна. Нет?

[Профиль]  [ЛС] 

jensen123321

Top Seed

Стаж: 6 лет 9 месяцев

Сообщений: 640

Откуда: Сергиев Посад

21-Апр-16 23:55 (спустя 1 час 36 минут)

[Цитировать] 

kipyatochnig
Штайнера правильнее, хотя кому как.

[Профиль]  [ЛС] 

Ich Lauf

Moderator

Стаж: 8 лет 3 месяца

Сообщений: 11683

Откуда: Himmelreich

05-Май-16 02:19 (спустя 13 дней, ред. 06-Май-16 21:17)

[Цитировать] 

jensen123321 писал(а):

Только первые кадры одинаковые, два других - нет.-Относительное какое-то лучшее качество. На 3 паре затерта линия, бандинг более резкий, разве что его поменьше да вон линии с грязюкой б-м.
[Профиль]  [ЛС] 

jensen123321

Top Seed

Стаж: 6 лет 9 месяцев

Сообщений: 640

Откуда: Сергиев Посад

07-Май-16 04:38 (спустя 2 дня 2 часа)

[Цитировать] 

Ich Lauf
Ну линии это вина исходника, я не фильтровал, попытался уложить с минимальным кол-вом бандинга, взяв самый нормальный рип по моему мнению. А то все рипы sd тут с ужасом на темных сценах, в любом случае размер уменьшил. =)

[Профиль]  [ЛС] 
Список файлов

Ссылка: Код для блога или сайта: Ссылка для форума: